<?xml version="1.0" standalone="no"?>
<!DOCTYPE svg PUBLIC "-//W3C//DTD SVG 1.1//EN" "http://www.w3.org/Graphics/SVG/1.1/DTD/svg11.dtd">
<svg xmlns="http://www.w3.org/2000/svg">
<defs >
<font id="NunitoSans" horiz-adv-x="563" ><font-face
    font-family="Nunito Sans SemiBold"
    units-per-em="1000"
    panose-1="0 0 7 0 0 0 0 0 0 0"
    ascent="1011"
    descent="-353"
    alphabetic="0" />
<glyph unicode=" " glyph-name="space" horiz-adv-x="264" />
<glyph unicode="!" glyph-name="exclam" horiz-adv-x="238" d="M88 198L56 705H181L149 198H88ZM59 119H178V0H59V119Z" />
<glyph unicode="&quot;" glyph-name="quotedbl" horiz-adv-x="435" d="M82 422L56 705H174L149 422H82ZM286 422L260 705H378L353 422H286Z" />
<glyph unicode="#" glyph-name="numbersign" horiz-adv-x="600" d="M561 467H468L425 246H540V177H412L377 0H303L338 177H194L159 0H85L120 177H39V246H133L176 467H60V536H190L223 705H297L264 536H408L441 705H515L482 536H561V467ZM351 246L394 467H250L207 246H351Z" />
<glyph unicode="$" glyph-name="dollar" horiz-adv-x="600" d="M558 115T502 61T352 -5V-115H268V-7Q201 -2 143 19T42 79L79 156Q130 114 183 95T299 76Q373 76 413 106T454 192Q454 225 433 245T379 277T290 303Q215 322 168 341T88 400T54 506Q54 587 112 643T267
711V820H351V711Q409 705 460 683T548 627L511 551Q421 629 309 629Q240 629 199 598T158 511Q158 474 181 451T238 415T331 388Q404 370 449 352T526 296T558 195Q558 115 502 61Z" />
<glyph unicode="%" glyph-name="percent" horiz-adv-x="937" d="M296 -26L226 14L641 731L711 691L296 -26ZM142 283T96 338T50 499Q50 605 96 659T223 714Q305 714 351 660T397 499Q397 392 351 338T223 283Q142 283 96 338ZM267 351T288 386T309 499Q309 575
288 610T223 645Q179 645 159 611T138 499Q138 422 158 387T223 351Q267 351 288 386ZM632 -7T586 47T540 209Q540 315 586 369T714 424Q795 424 841 370T888 209Q888 103 842 48T714 -7Q632 -7 586 47ZM758 61T778 96T799 209Q799 285 778 320T714 356Q670 356
649 321T628 209Q628 132 649 97T714 61Q758 61 778 96Z" />
<glyph unicode="&amp;" glyph-name="ampersand" horiz-adv-x="671" d="M572 0L494 83Q451 40 397 17T280 -7Q211 -7 158 16T76 82T46 180Q46 244 83 294T204 393Q161 440 143 476T124 553Q124 624 174 668T306 712Q382 712 427 673T472 565Q472 512 441 470T333
381L489 216Q531 302 535 419H621Q615 265 549 153L693 0H572ZM267 639T243 616T218 553Q218 527 231 502T281 437Q341 473 364 500T387 561Q387 596 365 617T307 639Q267 639 243 616ZM374 72T439 142L257 336Q197 300 171 265T145 185Q145 133 182 103T283 72Q374
72 439 142Z" />
<glyph unicode="&apos;" glyph-name="quotesingle" horiz-adv-x="231" d="M82 422L56 705H174L149 422H82Z" />
<glyph unicode="(" glyph-name="parenleft" horiz-adv-x="332" d="M160 -73T131 36T102 263Q102 380 131 489T228 720L297 692Q247 573 227 471T206 263Q206 158 226 56T297 -166L228 -194Q160 -73 131 36Z" />
<glyph unicode=")" glyph-name="parenright" horiz-adv-x="332" d="M35 -166Q85 -47 105 55T126 263Q126 368 106 470T35 692L104 720Q171 598 200 489T229 263Q229 146 200 37T104 -194L35 -166Z" />
<glyph unicode="*" glyph-name="asterisk" horiz-adv-x="451" d="M419 568V494L279 500L354 382L290 345L225 470L160 345L97 382L172 500L32 494V568L173 561L98 680L161 717L226 592L290 717L354 679L279 561L419 568Z" />
<glyph unicode="+" glyph-name="plus" horiz-adv-x="600" d="M544 322V248H337V41H263V248H56V322H263V529H337V322H544Z" />
<glyph unicode="," glyph-name="comma" horiz-adv-x="238" d="M178 119V38Q178 -9 163 -47T110 -123L66 -88Q108 -43 114 0H59V119H178Z" />
<glyph unicode="-" glyph-name="hyphen" horiz-adv-x="429" d="M70 226V307H359V226H70Z" />
<glyph unicode="." glyph-name="period" horiz-adv-x="238" d="M59 119H178V0H59V119Z" />
<glyph unicode="/" glyph-name="slash" horiz-adv-x="296" d="M60 -68L-20 -43L236 756L316 731L60 -68Z" />
<glyph unicode="0" glyph-name="zero" horiz-adv-x="600" d="M177 -8T113 84T48 352Q48 528 112 620T300 713Q423 713 487 621T552 353Q552 176 488 84T300 -8Q177 -8 113 84ZM377 75T413 142T449 353Q449 496 413 562T300 629Q223 629 187 563T151 353Q151 210
187 143T300 75Q377 75 413 142Z" />
<glyph unicode="1" glyph-name="one" horiz-adv-x="600" d="M380 85H535V0H123V85H277V582L154 507L110 584L306 705H380V85Z" />
<glyph unicode="2" glyph-name="two" horiz-adv-x="600" d="M542 85V0H80V77L323 343Q370 394 391 436T412 519Q412 573 381 601T292 629Q193 629 96 552L60 628Q102 667 166 690T295 713Q396 713 455 663T514 526Q514 465 488 410T399 287L210 85H542Z" />
<glyph unicode="3" glyph-name="three" horiz-adv-x="600" d="M466 344T498 301T531 191Q531 99 466 46T290 -7Q220 -7 156 15T49 78L86 154Q181 77 287 77Q358 77 394 107T431 198Q431 257 394 286T280 316H193V399H264Q337 399 375 429T414 519Q414 572 382
600T292 629Q191 629 96 552L60 628Q102 668 165 690T297 713Q396 713 455 664T514 531Q514 472 485 427T404 362Q466 344 498 301Z" />
<glyph unicode="4" glyph-name="four" horiz-adv-x="600" d="M568 228V146H465V0H364V146H47V223L381 705H465V228H568ZM148 228H364V540L148 228Z" />
<glyph unicode="5" glyph-name="five" horiz-adv-x="600" d="M400 446T450 418T527 339T555 222Q555 154 525 102T438 22T306 -7Q241 -7 178 16T72 78L108 154Q203 77 307 77Q377 77 416 114T455 220Q455 285 416 324T312 363Q219 363 159 291H93V705H525V622H195V400Q250
446 334 446Q400 446 450 418Z" />
<glyph unicode="6" glyph-name="six" horiz-adv-x="599" d="M400 447T449 419T526 339T554 222Q554 156 525 104T442 22T323 -8Q192 -8 122 81T51 337Q51 455 84 539T180 668T330 713Q392 713 451 691T554 628L517 552Q423 629 333 629Q247 629 200 554T153 339V336Q175
388 224 417T336 447Q400 447 449 419ZM380 76T417 115T454 220Q454 285 417 324T317 363Q255 363 215 324T175 220Q175 156 214 116T318 76Q380 76 417 115Z" />
<glyph unicode="7" glyph-name="seven" horiz-adv-x="600" d="M62 705H539V628L213 0H103L427 620H62V705Z" />
<glyph unicode="8" glyph-name="eight" horiz-adv-x="600" d="M490 344T524 298T558 188Q558 96 491 45T300 -7Q177 -7 110 44T42 188Q42 253 76 299T173 362Q120 382 90 425T59 525Q59 612 123 662T300 713Q413 713 477 663T541 525Q541 468 511 425T428 362Q490
344 524 298ZM230 630T194 601T158 516Q158 459 194 429T300 399Q370 399 406 429T442 516Q442 571 406 600T300 630Q230 630 194 601ZM459 76T459 195Q459 315 300 315Q141 315 141 195Q141 76 300 76Q459 76 459 195Z" />
<glyph unicode="9" glyph-name="nine" horiz-adv-x="600" d="M409 713T479 624T550 368Q550 250 517 166T421 37T270 -8Q208 -8 150 14T47 77L83 153Q179 76 267 76Q353 76 400 151T447 366V368Q425 317 376 288T264 258Q201 258 151 286T74 366T46 483Q46 549
76 601T158 683T278 713Q409 713 479 624ZM346 342T385 381T425 485Q425 550 386 589T283 629Q221 629 184 590T146 485Q146 421 183 382T283 342Q346 342 385 381Z" />
<glyph unicode=":" glyph-name="colon" horiz-adv-x="238" d="M59 488H178V369H59V488ZM59 119H178V0H59V119Z" />
<glyph unicode=";" glyph-name="semicolon" horiz-adv-x="238" d="M59 488H178V369H59V488ZM59 119H178V38Q178 -9 163 -47T110 -123L66 -88Q108 -43 114 0H59V119Z" />
<glyph unicode="&lt;" glyph-name="less" horiz-adv-x="600" d="M544 538V457L148 285L544 113V32L56 246V324L544 538Z" />
<glyph unicode="=" glyph-name="equal" horiz-adv-x="600" d="M544 422V348H56V422H544ZM544 222V148H56V222H544Z" />
<glyph unicode="&gt;" glyph-name="greater" horiz-adv-x="600" d="M56 538L544 324V246L56 32V113L452 285L56 457V538Z" />
<glyph unicode="?" glyph-name="question" horiz-adv-x="450" d="M183 227Q183 286 204 327T265 417Q297 457 312 484T327 545Q327 584 300 606T225 628Q180 628 132 609T37 552L0 628Q42 667 105 690T231 713Q320 713 375 669T430 553Q430 517 418 486T387 432T337
373Q294 326 273 293T246 217L242 195H183V227ZM154 0V119H273V0H154Z" />
<glyph unicode="@" glyph-name="at" horiz-adv-x="930" d="M345 -154T248 -101T99 48T46 270Q46 404 102 504T256 657T476 711Q605 711 697 660T836 525T883 343Q883 248 855 186T780 94T680 64Q627 64 596 87T560 151H558Q504 64 409 64Q341 64 300 111T258 240Q258
309 284 368T359 463T469 499Q515 499 549 478T594 423H596L607 488H684L638 227Q634 197 634 189Q634 156 648 142T694 127Q720 127 746 148T791 218T809 343Q809 423 772 491T659 600T476 642Q375 642 295 598T170 469T124 270Q124 163 166 83T287 -40T475 -84Q556
-84 615 -62T705 0H807Q765 -71 679 -112T475 -154Q345 -154 248 -101ZM473 127T507 155T558 230T576 326Q576 379 551 407T481 435Q436 435 403 407T353 335T336 242Q336 187 361 157T426 127Q473 127 507 155Z" />
<glyph unicode="A" glyph-name="A" horiz-adv-x="734" d="M621 0L546 174H189L114 0H10L324 705H410L724 0H621ZM224 256H511L368 590L224 256Z" />
<glyph unicode="B" glyph-name="B" horiz-adv-x="678" d="M558 346T591 302T625 192Q625 101 563 51T388 0H82V705H377Q486 705 547 657T609 521Q609 465 580 424T497 363Q558 346 591 302ZM183 400H361Q509 400 509 512Q509 568 473 595T361 622H183V400ZM454
83T490 111T526 198Q526 258 490 287T377 317H183V83H377Q454 83 490 111Z" />
<glyph unicode="C" glyph-name="C" horiz-adv-x="677" d="M290 -8T215 36T99 161T58 353Q58 463 98 544T214 669T392 713Q464 713 526 691T631 626L595 550Q546 591 498 609T393 627Q283 627 224 556T164 353Q164 221 223 150T393 78Q449 78 497 96T595 155L631
79Q588 37 526 15T392 -8Q290 -8 215 36Z" />
<glyph unicode="D" glyph-name="D" horiz-adv-x="746" d="M82 705H329Q500 705 594 613T688 353Q688 185 594 93T329 0H82V705ZM323 86Q583 86 583 353Q583 619 323 619H185V86H323Z" />
<glyph unicode="E" glyph-name="E" horiz-adv-x="585" d="M82 0V705H540V622H183V400H520V316H183V83H540V0H82Z" />
<glyph unicode="F" glyph-name="F" horiz-adv-x="561" d="M82 0V705H530V621H184V400H510V316H184V0H82Z" />
<glyph unicode="G" glyph-name="G" horiz-adv-x="728" d="M654 374V42Q609 19 541 6T403 -8Q296 -8 218 35T99 159T58 353Q58 464 99 545T216 670T397 713Q472 713 535 691T642 627L605 551Q555 592 506 610T398 628Q284 628 224 558T163 353Q163 216 225 146T406
75Q484 75 560 98V296H396V374H654Z" />
<glyph unicode="H" glyph-name="H" horiz-adv-x="762" d="M578 705H680V0H578V316H184V0H82V705H184V400H578V705Z" />
<glyph unicode="I" glyph-name="I" horiz-adv-x="267" d="M82 0V705H185V0H82Z" />
<glyph unicode="J" glyph-name="J" horiz-adv-x="341" d="M-7 77L57 81Q105 85 130 113T155 193V705H259V192Q259 102 212 52T73 -3L0 -8L-7 77Z" />
<glyph unicode="K" glyph-name="K" horiz-adv-x="642" d="M661 0H532L185 332V0H82V705H185V384L517 705H644L288 364L661 0Z" />
<glyph unicode="L" glyph-name="L" horiz-adv-x="547" d="M82 0V705H185V86H527V0H82Z" />
<glyph unicode="M" glyph-name="M" horiz-adv-x="841" d="M676 705H758V0H665L666 510L456 113H386L175 505L176 0H83V705H166L422 217L676 705Z" />
<glyph unicode="N" glyph-name="N" horiz-adv-x="743" d="M564 705H661V0H582L179 532V0H82V705H160L564 172V705Z" />
<glyph unicode="O" glyph-name="O" horiz-adv-x="771" d="M285 -8T212 36T98 161T58 352Q58 463 97 544T211 669T385 713Q486 713 560 670T673 545T713 353Q713 243 674 162T560 36T385 -8Q285 -8 212 36ZM491 76T550 148T609 353Q609 486 551 557T385 629Q280
629 222 558T163 353Q163 220 221 148T385 76Q491 76 550 148Z" />
<glyph unicode="P" glyph-name="P" horiz-adv-x="652" d="M82 705H374Q486 705 548 650T610 494Q610 394 548 338T374 282H185V0H82V705ZM363 365Q511 365 511 494Q511 622 363 622H185V365H363Z" />
<glyph unicode="Q" glyph-name="Q" horiz-adv-x="771" d="M544 11T561 -5T597 -50L666 -162L579 -205L490 -60Q458 -8 385 -8Q285 -8 212 36T98 161T58 352Q58 463 97 544T211 669T385 713Q486 713 560 670T673 545T713 353Q713 230 663 143T522 18Q544 11 561
-5ZM163 220T221 148T385 76Q491 76 550 148T609 353Q609 486 551 557T385 629Q280 629 222 558T163 353Q163 220 221 148Z" />
<glyph unicode="R" glyph-name="R" horiz-adv-x="690" d="M654 0H540L420 226Q400 262 373 276T300 291H184V0H82V705H382Q499 705 560 653T622 501Q622 420 577 368T447 302Q499 286 533 224L654 0ZM370 374Q448 374 485 404T523 499Q523 563 486 592T370 622H183V374H370Z"
/>
<glyph unicode="S" glyph-name="S" horiz-adv-x="627" d="M231 -8T163 14T45 79L82 155Q134 113 189 95T314 76Q393 76 436 105T479 189Q479 235 439 257T311 300Q227 318 173 341T89 403T58 504Q58 566 90 613T183 686T322 713Q396 713 461 691T569 626L533 550Q484
590 433 609T323 629Q247 629 204 598T160 510Q160 462 198 438T320 393Q408 373 462 352T549 293T582 195Q582 134 550 88T457 17T313 -8Q231 -8 163 14Z" />
<glyph unicode="T" glyph-name="T" horiz-adv-x="605" d="M250 0V619H12V705H593V619H354V0H250Z" />
<glyph unicode="U" glyph-name="U" horiz-adv-x="728" d="M223 -8T150 65T77 280V705H179V273Q179 176 225 126T364 76Q455 76 502 126T549 273V705H651V280Q651 139 578 66T364 -8Q223 -8 150 65Z" />
<glyph unicode="V" glyph-name="V" horiz-adv-x="701" d="M600 705H705L394 0H307L-3 705H104L352 130L600 705Z" />
<glyph unicode="W" glyph-name="W" horiz-adv-x="1105" d="M976 705H1076L828 0H743L553 546L361 0H276L29 705H133L322 146L517 705L593 704L784 143L976 705Z" />
<glyph unicode="X" glyph-name="X" horiz-adv-x="654" d="M386 359L654 0H533L327 283L121 0H0L269 360L11 705H132L328 436L523 705H643L386 359Z" />
<glyph unicode="Y" glyph-name="Y" horiz-adv-x="611" d="M638 705L357 329V0H254V329L-27 705H91L306 414L521 705H638Z" />
<glyph unicode="Z" glyph-name="Z" horiz-adv-x="595" d="M163 84H559V0H46V76L431 621H46V705H549V630L163 84Z" />
<glyph unicode="[" glyph-name="bracketleft" horiz-adv-x="331" d="M108 -180V705H321V627H207V-102H321V-180H108Z" />
<glyph unicode="\" glyph-name="backslash" horiz-adv-x="296" d="M236 -68L-20 731L60 756L316 -43L236 -68Z" />
<glyph unicode="]" glyph-name="bracketright" horiz-adv-x="331" d="M223 -180H10V-102H124V627H10V705H223V-180Z" />
<glyph unicode="^" glyph-name="asciicircum" horiz-adv-x="600" d="M553 141H472L300 537L128 141H47L261 629H339L553 141Z" />
<glyph unicode="_" glyph-name="underscore" horiz-adv-x="500" d="M10 -63V0H490V-63H10Z" />
<glyph unicode="`" glyph-name="grave" horiz-adv-x="300" d="M117 552L-24 755H84L183 552H117Z" />
<glyph unicode="a" glyph-name="a" horiz-adv-x="535" d="M372 500T419 451T467 302V0H370V81Q351 38 314 16T226 -7Q178 -7 138 12T76 67T53 145Q53 198 80 228T171 272T346 285H369V314Q369 370 346 395T269 420Q186 420 103 369L73 440Q112 467 167 483T274
500Q372 500 419 451ZM299 68T334 105T369 202V228H351Q273 228 231 221T171 198T153 150Q153 115 178 92T244 68Q299 68 334 105Z" />
<glyph unicode="b" glyph-name="b" horiz-adv-x="591" d="M396 500T445 469T521 381T549 248Q549 173 522 115T445 25T332 -7Q277 -7 235 16T171 84V0H70V705H171V408Q193 452 235 476T332 500Q396 500 445 469ZM373 73T409 119T446 248Q446 330 410 374T308 419Q242
419 207 374T171 246Q171 163 206 118T308 73Q373 73 409 119Z" />
<glyph unicode="c" glyph-name="c" horiz-adv-x="483" d="M210 -7T156 24T72 111T42 244Q42 320 72 378T158 468T288 500Q339 500 386 483T464 437L433 365Q367 419 296 419Q226 419 187 374T147 245Q147 163 186 119T296 74Q367 74 433 128L464 55Q432 26 384
10T284 -7Q210 -7 156 24Z" />
<glyph unicode="d" glyph-name="d" horiz-adv-x="591" d="M520 705V0H420V84Q398 40 356 17T259 -7Q196 -7 147 25T70 115T42 248Q42 324 69 381T146 469T259 500Q314 500 355 477T419 410V705H520ZM349 73T384 118T420 246Q420 329 385 374T283 419Q217 419 181
375T144 248Q144 166 181 120T283 73Q349 73 384 118Z" />
<glyph unicode="e" glyph-name="e" horiz-adv-x="529" d="M488 227H143Q154 72 297 72Q381 72 449 127L480 56Q446 27 396 10T294 -7Q177 -7 110 60T42 245Q42 320 71 378T154 468T276 500Q375 500 431 436T488 259V227ZM220 426T186 390T144 285H401Q398 353
367 389T278 426Q220 426 186 390Z" />
<glyph unicode="f" glyph-name="f" horiz-adv-x="342" d="M202 488H336V410H202V0H101V410H6V488H101V497Q101 598 152 649T310 706L355 708L361 632L315 629Q255 626 229 598T202 513V488Z" />
<glyph unicode="g" glyph-name="g" horiz-adv-x="595" d="M524 488V39Q524 -73 465 -130T289 -187Q226 -187 170 -171T69 -123L100 -50Q148 -81 192 -94T288 -108Q425 -108 425 31V108Q404 64 361 40T261 15Q197 15 147 45T70 130T42 257Q42 329 70 384T147 469T261
500Q317 500 359 476T424 408V488H524ZM350 95T387 138T424 257Q424 332 388 375T285 419Q219 419 182 376T144 257Q144 181 182 138T285 95Q350 95 387 138Z" />
<glyph unicode="h" glyph-name="h" horiz-adv-x="576" d="M508 500T508 303V0H407V298Q407 360 383 389T306 418Q245 418 208 380T171 278V0H70V705H171V414Q196 456 238 478T333 500Q508 500 508 303Z" />
<glyph unicode="i" glyph-name="i" horiz-adv-x="242" d="M70 0V488H171V0H70ZM63 706H179V601H63V706Z" />
<glyph unicode="j" glyph-name="j" horiz-adv-x="242" d="M171 12Q171 -83 126 -129T-21 -181L-67 -184L-75 -109L-27 -106Q22 -102 46 -77T70 -3V488H171V12ZM63 706H179V601H63V706Z" />
<glyph unicode="k" glyph-name="k" horiz-adv-x="517" d="M530 0H402L171 230V0H70V705H171V268L385 487H510L279 253L530 0Z" />
<glyph unicode="l" glyph-name="l" horiz-adv-x="242" d="M70 0V705H171V0H70Z" />
<glyph unicode="m" glyph-name="m" horiz-adv-x="862" d="M794 500T794 303V0H693V299Q693 361 672 389T602 418Q547 418 515 380T483 276V0H382V299Q382 361 360 389T291 418Q235 418 203 380T171 276V0H70V488H169V414Q192 455 231 477T320 500Q433 500 467
406Q490 450 533 475T630 500Q794 500 794 303Z" />
<glyph unicode="n" glyph-name="n" horiz-adv-x="576" d="M508 500T508 303V0H407V298Q407 360 383 389T306 418Q245 418 208 380T171 278V0H70V488H169V410Q193 454 236 477T333 500Q508 500 508 303Z" />
<glyph unicode="o" glyph-name="o" horiz-adv-x="564" d="M210 -7T156 24T72 112T42 246Q42 323 71 380T155 469T282 500Q354 500 408 469T492 381T522 246Q522 170 493 113T409 24T282 -7Q210 -7 156 24ZM349 73T384 117T420 246Q420 330 384 374T282 419Q216
419 180 375T144 246Q144 161 179 117T282 73Q349 73 384 117Z" />
<glyph unicode="p" glyph-name="p" horiz-adv-x="591" d="M395 500T444 468T521 378T549 244Q549 169 522 112T446 24T332 -7Q277 -7 235 16T171 84V-180H70V488H171V408Q193 452 235 476T332 500Q395 500 444 468ZM374 73T410 117T446 244Q446 327 410 373T308
419Q242 419 207 374T171 246Q171 163 206 118T308 73Q374 73 410 117Z" />
<glyph unicode="q" glyph-name="q" horiz-adv-x="591" d="M520 488V-180H419V82Q397 39 356 16T259 -7Q195 -7 146 24T69 112T42 244Q42 320 69 378T146 468T259 500Q314 500 356 476T420 408V488H520ZM349 73T384 118T420 246Q420 329 385 374T283 419Q218 419
181 373T144 244Q144 162 180 118T283 73Q349 73 384 118Z" />
<glyph unicode="r" glyph-name="r" horiz-adv-x="366" d="M367 415L306 409Q234 402 203 365T171 271V0H70V488H168V403Q207 489 327 498L360 500L367 415Z" />
<glyph unicode="s" glyph-name="s" horiz-adv-x="482" d="M115 -7T39 55L70 128Q145 70 245 70Q294 70 320 86T346 133Q346 159 329 174T268 199L187 217Q122 232 89 266T56 352Q56 418 109 459T250 500Q302 500 349 484T430 437L399 366Q327 423 250 423Q204
423 178 405T151 356Q151 331 167 316T220 292L303 273Q374 257 407 224T440 136Q440 70 387 32T242 -7Q115 -7 39 55Z" />
<glyph unicode="t" glyph-name="t" horiz-adv-x="353" d="M324 71T346 74L341 -3Q316 -7 289 -7Q194 -7 148 39T101 174V410H6V488H101V635H202V488H336V410H202V178Q202 71 301 71Q324 71 346 74Z" />
<glyph unicode="u" glyph-name="u" horiz-adv-x="569" d="M498 488V0H400V79Q377 37 337 15T246 -7Q68 -7 68 189V488H169V190Q169 131 193 103T267 75Q326 75 361 113T397 214V488H498Z" />
<glyph unicode="v" glyph-name="v" horiz-adv-x="520" d="M416 487H517L305 0H214L4 487H110L262 114L416 487Z" />
<glyph unicode="w" glyph-name="w" horiz-adv-x="848" d="M731 488H831L644 0H553L424 349L295 0H203L17 488H122L254 121L387 488H466L599 119L731 488Z" />
<glyph unicode="x" glyph-name="x" horiz-adv-x="525" d="M321 251L525 0H404L262 178L121 0H0L204 251L11 488H133L262 323L392 488H513L321 251Z" />
<glyph unicode="y" glyph-name="y" horiz-adv-x="520" d="M416 487H517L226 -180H124L209 12L4 487H110L262 114L416 487Z" />
<glyph unicode="z" glyph-name="z" horiz-adv-x="506" d="M170 78H466V0H48V70L334 410H56V488H456V417L170 78Z" />
<glyph unicode="{" glyph-name="braceleft" horiz-adv-x="368" d="M244 327T222 299T168 263Q199 256 221 227T244 154V-58Q244 -81 254 -91T287 -102H358V-180H254Q202 -180 174 -151T145 -69V143Q145 183 130 201T77 222L46 225V300L77 303Q115 305 130 323T145
382V594Q145 647 173 676T254 705H358V627H287Q265 627 255 617T244 583V371Q244 327 222 299Z" />
<glyph unicode="|" glyph-name="bar" horiz-adv-x="269" d="M87 -180V705H182V-180H87Z" />
<glyph unicode="}" glyph-name="braceright" horiz-adv-x="368" d="M322 300V225L290 222Q252 220 238 202T223 143V-69Q223 -122 195 -151T113 -180H10V-102H81Q124 -102 124 -58V154Q124 198 146 227T200 263Q169 270 147 298T124 371V583Q124 627 81 627H10V705H113Q166
705 194 676T223 594V382Q223 341 237 323T290 303L322 300Z" />
<glyph unicode="~" glyph-name="asciitilde" horiz-adv-x="600" d="M544 313Q526 265 492 239T412 212Q381 212 351 223T282 256Q250 273 231 280T194 288Q139 288 114 224L56 258Q74 306 108 332T188 359Q219 359 249 348T318 315Q353 297 371 290T406 282Q461
282 486 346L544 313Z" />
<glyph unicode="&#xa0;" glyph-name="uni00A0" horiz-adv-x="264" />
<glyph unicode="&#xa1;" glyph-name="exclamdown" horiz-adv-x="238" d="M59 369V488H178V369H59ZM88 290H149L181 -180H56L88 290Z" />
<glyph unicode="&#xa2;" glyph-name="cent" horiz-adv-x="600" d="M509 55Q482 30 443 15T358 -6V-115H273V-2Q188 15 138 81T87 244Q87 341 137 408T273 494V607H358V499Q402 495 442 479T509 437L478 365Q412 419 341 419Q271 419 232 373T192 245Q192 163 231
119T341 74Q412 74 478 128L509 55Z" />
<glyph unicode="&#xa3;" glyph-name="sterling" horiz-adv-x="600" d="M239 85H563V0H46V85H137V319H46V387H137V519Q137 608 192 660T342 713Q407 713 465 691T569 627L532 551Q488 589 441 609T348 629Q295 629 267 599T239 512V387H414V319H239V85Z" />
<glyph unicode="&#xa4;" glyph-name="currency" horiz-adv-x="600" d="M541 162T491 94L544 39L498 -7L445 47Q380 -3 300 -3Q218 -3 153 48L99 -7L53 39L107 95Q58 161 58 245Q58 330 107 395L53 451L100 498L153 442Q218 493 300 493Q381 493 444 444L496 499L545
450L492 395Q541 330 541 245Q541 162 491 94ZM341 79T377 101T434 162T455 245Q455 291 434 329T376 389T297 411Q255 411 220 389T163 328T142 245Q142 200 163 162T220 102T299 79Q341 79 377 101Z" />
<glyph unicode="&#xa5;" glyph-name="yen" horiz-adv-x="600" d="M610 705L388 390H530V322H351V238H530V170H351V0H248V170H70V238H248V322H70V390H212L-10 705H104L300 420L496 705H610Z" />
<glyph unicode="&#xa6;" glyph-name="brokenbar" horiz-adv-x="269" d="M87 371V705H182V371H87ZM87 -180V154H182V-180H87Z" />
<glyph unicode="&#xa7;" glyph-name="section" horiz-adv-x="549" d="M511 166T496 132T451 73Q471 39 471 -7Q471 -91 417 -139T265 -187Q140 -187 61 -124L92 -51Q134 -81 174 -94T260 -108Q313 -108 342 -84T372 -14Q372 22 353 46T290 92L183 142Q106 179
72 221T38 323Q38 360 53 394T97 454Q78 488 78 532Q78 614 134 662T285 712Q337 712 384 696T466 650L435 579Q364 634 291 634Q236 634 207 610T177 539Q177 504 196 480T259 434L365 383Q443 345 477 303T511 203Q511 166 496 132ZM372 152T400 129Q418 156
418 188Q418 222 395 248T320 302L216 355Q169 380 149 397Q130 369 130 337Q130 304 153 278T229 224L333 171Q372 152 400 129Z" />
<glyph unicode="&#xa8;" glyph-name="dieresis" horiz-adv-x="300" d="M10 703H113V604H10V703ZM187 703H290V604H187V703Z" />
<glyph unicode="&#xa9;" glyph-name="copyright" horiz-adv-x="815" d="M308 -5T227 42T98 171T50 353Q50 453 97 534T226 663T408 710Q508 710 589 663T718 535T765 353Q765 253 718 172T589 43T408 -5Q308 -5 227 42ZM494 45T563 85T673 196T713 353Q713 439
673 509T564 620T408 660Q322 660 252 620T142 510T102 353Q102 267 142 197T252 86T408 45Q494 45 563 85ZM322 137T266 195T210 353Q210 451 266 509T418 568Q461 568 501 555T569 516L542 451Q488 495 428 495Q369 495 337 458T305 353Q305 284 337 247T428
210Q488 210 542 254L569 189Q541 164 501 151T418 137Q322 137 266 195Z" />
<glyph unicode="&#xaa;" glyph-name="ordfeminine" horiz-adv-x="333" d="M232 710T264 680T297 583V410H215V459Q204 434 181 420T129 405Q85 405 56 432T26 496Q26 542 63 562T195 582H214V597Q214 623 201 634T160 646Q114 646 63 618L43 679Q68 693 101 701T168
710Q232 710 264 680ZM178 464T196 481T214 528V539H204Q145 539 126 530T106 501Q106 485 118 475T151 464Q178 464 196 481Z" />
<glyph unicode="&#xab;" glyph-name="guillemotleft" horiz-adv-x="465" d="M159 80L61 240V291L158 451L228 421L152 265L228 109L159 80ZM352 80L254 240V291L351 451L421 421L345 265L421 109L352 80Z" />
<glyph unicode="&#xac;" glyph-name="logicalnot" horiz-adv-x="600" d="M544 425V145H470V351H56V425H544Z" />
<glyph unicode="&#xad;" glyph-name="uni00AD" horiz-adv-x="429" d="M70 226V307H359V226H70Z" />
<glyph unicode="&#xae;" glyph-name="registered" horiz-adv-x="815" d="M508 710T589 663T718 535T765 353Q765 253 718 172T589 43T408 -5Q308 -5 227 42T98 171T50 353Q50 453 97 534T226 663T408 710Q508 710 589 663ZM494 45T563 85T673 196T713 353Q713
439 673 509T564 620T408 660Q322 660 252 620T142 510T102 353Q102 267 142 197T252 86T408 45Q494 45 563 85ZM520 304T540 266L612 142H511L435 277Q425 293 414 299T385 306H342V142H251V564H435Q507 564 546 530T585 436Q585 388 558 356T480 314Q520 304
540 266ZM461 373T479 387T497 433Q497 464 480 478T424 493H341V373H424Q461 373 479 387Z" />
<glyph unicode="&#xaf;" glyph-name="overscore" horiz-adv-x="300" d="M-2 618V688H302V618H-2Z" />
<glyph unicode="&#xb0;" glyph-name="degree" horiz-adv-x="366" d="M142 417T108 436T55 488T35 563Q35 605 54 638T108 691T183 710Q224 710 257 691T310 639T330 563Q330 522 311 489T258 436T183 417Q142 417 108 436ZM219 476T242 500T266 563Q266 601 243
625T183 650Q147 650 123 626T99 563Q99 525 123 501T183 476Q219 476 242 500Z" />
<glyph unicode="&#xb1;" glyph-name="plusminus" horiz-adv-x="600" d="M337 366H544V292H337V129H263V292H56V366H263V529H337V366ZM56 0V74H544V0H56Z" />
<glyph unicode="&#xb2;" glyph-name="uni00B2" horiz-adv-x="380" d="M339 354V282H51V348L191 499Q214 525 225 546T237 587Q237 612 221 625T176 639Q149 639 119 628T60 597L37 661Q65 682 106 695T188 709Q252 709 289 677T326 592Q326 556 309 523T251 449L157
354H339Z" />
<glyph unicode="&#xb3;" glyph-name="uni00B3" horiz-adv-x="380" d="M296 489T316 463T336 398Q336 344 296 311T184 278Q142 278 101 291T31 326L55 390Q116 348 177 348Q252 348 252 405Q252 461 176 461H116V530H165Q240 530 240 588Q240 613 224 626T179
639Q150 639 119 628T60 597L37 661Q65 682 105 695T184 709Q251 709 288 677T326 595Q326 561 308 537T259 500Q296 489 316 463Z" />
<glyph unicode="&#xb4;" glyph-name="acute" horiz-adv-x="300" d="M183 552H117L216 755H324L183 552Z" />
<glyph unicode="&#xb5;" glyph-name="uni00B5" horiz-adv-x="569" d="M498 488V0H400V79Q377 37 337 15T246 -7Q199 -7 169 10V-180H68V488H169V190Q169 131 193 103T267 75Q326 75 361 113T397 214V488H498Z" />
<glyph unicode="&#xb6;" glyph-name="paragraph" horiz-adv-x="596" d="M514 -180H437V636H322V-180H246V297Q185 297 139 323T67 395T41 501Q41 561 66 607T139 679T248 705H514V-180Z" />
<glyph unicode="&#xb7;" glyph-name="middot" horiz-adv-x="238" d="M59 326H178V207H59V326Z" />
<glyph unicode="&#xb8;" glyph-name="cedilla" horiz-adv-x="300" d="M224 -41T246 -58T268 -110Q268 -147 236 -170T147 -194Q126 -194 101 -189T57 -175L70 -128Q107 -142 146 -142Q171 -142 185 -134T199 -110Q199 -85 164 -85Q146 -85 122 -93L102 -76L113
20H177L169 -43Q183 -41 190 -41Q224 -41 246 -58Z" />
<glyph unicode="&#xb9;" glyph-name="uni00B9" horiz-adv-x="380" d="M260 354H337V282H95V354H172V607L104 567L68 631L195 705H260V354Z" />
<glyph unicode="&#xba;" glyph-name="ordmasculine" horiz-adv-x="351" d="M101 405T61 447T20 558Q20 625 60 667T175 710Q249 710 290 668T331 558Q331 491 290 448T175 405Q101 405 61 447ZM209 474T227 495T245 558Q245 599 227 620T175 642Q141 642 124 621T106
558Q106 517 123 496T175 474Q209 474 227 495Z" />
<glyph unicode="&#xbb;" glyph-name="guillemotright" horiz-adv-x="462" d="M113 80L44 109L120 265L44 421L114 451L211 291V240L113 80ZM306 80L237 109L313 265L237 421L307 451L404 291V240L306 80Z" />
<glyph unicode="&#xbc;" glyph-name="onequarter" horiz-adv-x="941" d="M260 354H337V282H95V354H172V607L104 567L68 631L195 705H260V354ZM298 -26L228 14L643 731L713 691L298 -26ZM923 145V78H861V0H779V78H589V141L790 423H861V145H923ZM667 145H779V303L667 145Z" />
<glyph unicode="&#xbd;" glyph-name="onehalf" horiz-adv-x="941" d="M260 354H337V282H95V354H172V607L104 567L68 631L195 705H260V354ZM298 -26L228 14L643 731L713 691L298 -26ZM900 72V0H612V66L752 217Q775 243 786 264T798 305Q798 330 782 343T737 357Q710
357 680 346T621 315L598 379Q626 400 667 413T749 427Q813 427 850 395T887 310Q887 274 870 241T812 167L718 72H900Z" />
<glyph unicode="&#xbe;" glyph-name="threequarters" horiz-adv-x="941" d="M296 489T316 463T336 398Q336 344 296 311T184 278Q142 278 101 291T31 326L55 390Q116 348 177 348Q252 348 252 405Q252 461 176 461H116V530H165Q240 530 240 588Q240 613 224 626T179
639Q150 639 119 628T60 597L37 661Q65 682 105 695T184 709Q251 709 288 677T326 595Q326 561 308 537T259 500Q296 489 316 463ZM298 -26L228 14L643 731L713 691L298 -26ZM923 145V78H861V0H779V78H589V141L790 423H861V145H923ZM667 145H779V303L667 145Z"
/>
<glyph unicode="&#xbf;" glyph-name="questiondown" horiz-adv-x="450" d="M177 369V488H296V369H177ZM133 -187T77 -144T20 -29Q20 21 43 55T113 130Q155 168 177 197T204 270L208 293H268V260Q268 220 257 190T229 139T185 90Q153 57 138 34T123 -21Q123 -58
150 -80T225 -103Q269 -103 317 -84T414 -26L450 -103Q407 -142 344 -164T219 -187Q133 -187 77 -144Z" />
<glyph unicode="&#xc0;" glyph-name="Agrave" horiz-adv-x="734" d="M621 0L546 174H189L114 0H10L324 705H410L724 0H621ZM224 256H511L368 590L224 256ZM334 765L196 918H299L400 765H334Z" />
<glyph unicode="&#xc1;" glyph-name="Aacute" horiz-adv-x="734" d="M621 0L546 174H189L114 0H10L324 705H410L724 0H621ZM224 256H511L368 590L224 256ZM400 765H334L435 918H538L400 765Z" />
<glyph unicode="&#xc2;" glyph-name="Acircumflex" horiz-adv-x="734" d="M621 0L546 174H189L114 0H10L324 705H410L724 0H621ZM224 256H511L368 590L224 256ZM297 765H213L335 918H399L521 765H437L367 863L297 765Z" />
<glyph unicode="&#xc3;" glyph-name="Atilde" horiz-adv-x="734" d="M621 0L546 174H189L114 0H10L324 705H410L724 0H621ZM224 256H511L368 590L224 256ZM202 841T228 873T297 906Q317 906 334 898T379 874Q402 861 413 856T436 850Q456 850 468 865T481 903H532Q532
844 506 812T437 779Q417 779 400 787T355 811Q332 824 321 829T298 835Q278 835 266 820T253 782H202Q202 841 228 873Z" />
<glyph unicode="&#xc4;" glyph-name="Adieresis" horiz-adv-x="734" d="M621 0L546 174H189L114 0H10L324 705H410L724 0H621ZM224 256H511L368 590L224 256ZM227 892H330V793H227V892ZM404 892H507V793H404V892Z" />
<glyph unicode="&#xc5;" glyph-name="Aring" horiz-adv-x="734" d="M546 174H189L114 0H10L316 686Q292 699 278 722T264 774Q264 817 294 846T367 876Q411 876 441 847T471 774Q471 746 457 723T419 686L724 0H621L546 174ZM347 823T334 809T321 774Q321 753
334 739T367 725Q387 725 400 739T414 774Q414 794 401 808T367 823Q347 823 334 809ZM224 256H511L368 590L224 256Z" />
<glyph unicode="&#xc6;" glyph-name="AE" horiz-adv-x="994" d="M948 621H531L579 400H928V316H597L647 84H948V0H571L534 174H205L102 0H-10L423 705H948V621ZM253 256H516L446 581L253 256Z" />
<glyph unicode="&#xc7;" glyph-name="Ccedilla" horiz-adv-x="677" d="M591 40T534 18T410 -8L405 -43Q419 -41 426 -41Q460 -41 482 -58T504 -110Q504 -147 472 -170T383 -194Q362 -194 337 -189T293 -175L306 -128Q343 -142 382 -142Q407 -142 421 -134T435
-110Q435 -85 400 -85Q382 -85 358 -93L338 -76L346 -6Q257 4 192 50T93 173T58 353Q58 463 98 544T214 669T392 713Q464 713 526 691T631 626L595 550Q546 591 498 609T393 627Q283 627 224 556T164 353Q164 221 223 150T393 78Q449 78 497 96T595 155L631 79Q591
40 534 18Z" />
<glyph unicode="&#xc8;" glyph-name="Egrave" horiz-adv-x="585" d="M82 0V705H540V622H183V400H520V316H183V83H540V0H82ZM293 765L155 918H258L359 765H293Z" />
<glyph unicode="&#xc9;" glyph-name="Eacute" horiz-adv-x="585" d="M82 0V705H540V622H183V400H520V316H183V83H540V0H82ZM359 765H293L394 918H497L359 765Z" />
<glyph unicode="&#xca;" glyph-name="Ecircumflex" horiz-adv-x="585" d="M82 0V705H540V622H183V400H520V316H183V83H540V0H82ZM256 765H172L294 918H358L480 765H396L326 863L256 765Z" />
<glyph unicode="&#xcb;" glyph-name="Edieresis" horiz-adv-x="585" d="M82 0V705H540V622H183V400H520V316H183V83H540V0H82ZM186 892H289V793H186V892ZM363 892H466V793H363V892Z" />
<glyph unicode="&#xcc;" glyph-name="Igrave" horiz-adv-x="267" d="M82 0V705H185V0H82ZM100 765L-38 918H65L166 765H100Z" />
<glyph unicode="&#xcd;" glyph-name="Iacute" horiz-adv-x="267" d="M82 0V705H185V0H82ZM166 765H100L201 918H304L166 765Z" />
<glyph unicode="&#xce;" glyph-name="Icircumflex" horiz-adv-x="267" d="M82 0V705H185V0H82ZM63 765H-21L101 918H165L287 765H203L133 863L63 765Z" />
<glyph unicode="&#xcf;" glyph-name="Idieresis" horiz-adv-x="267" d="M82 0V705H185V0H82ZM-7 892H96V793H-7V892ZM170 892H273V793H170V892Z" />
<glyph unicode="&#xd0;" glyph-name="Eth" horiz-adv-x="764" d="M518 705T612 613T706 353Q706 185 612 93T347 0H100V317H10V398H100V705H347Q518 705 612 613ZM601 86T601 353Q601 619 341 619H203V398H394V317H203V86H341Q601 86 601 353Z" />
<glyph unicode="&#xd1;" glyph-name="Ntilde" horiz-adv-x="743" d="M564 705H661V0H582L179 532V0H82V705H160L564 172V705ZM206 841T232 873T301 906Q321 906 338 898T383 874Q406 861 417 856T440 850Q460 850 472 865T485 903H536Q536 844 510 812T441 779Q421
779 404 787T359 811Q336 824 325 829T302 835Q282 835 270 820T257 782H206Q206 841 232 873Z" />
<glyph unicode="&#xd2;" glyph-name="Ograve" horiz-adv-x="771" d="M285 -8T212 36T98 161T58 352Q58 463 97 544T211 669T385 713Q486 713 560 670T673 545T713 353Q713 243 674 162T560 36T385 -8Q285 -8 212 36ZM491 76T550 148T609 353Q609 486 551 557T385
629Q280 629 222 558T163 353Q163 220 221 148T385 76Q491 76 550 148ZM352 765L214 918H317L418 765H352Z" />
<glyph unicode="&#xd3;" glyph-name="Oacute" horiz-adv-x="771" d="M285 -8T212 36T98 161T58 352Q58 463 97 544T211 669T385 713Q486 713 560 670T673 545T713 353Q713 243 674 162T560 36T385 -8Q285 -8 212 36ZM491 76T550 148T609 353Q609 486 551 557T385
629Q280 629 222 558T163 353Q163 220 221 148T385 76Q491 76 550 148ZM418 765H352L453 918H556L418 765Z" />
<glyph unicode="&#xd4;" glyph-name="Ocircumflex" horiz-adv-x="771" d="M285 -8T212 36T98 161T58 352Q58 463 97 544T211 669T385 713Q486 713 560 670T673 545T713 353Q713 243 674 162T560 36T385 -8Q285 -8 212 36ZM491 76T550 148T609 353Q609 486 551
557T385 629Q280 629 222 558T163 353Q163 220 221 148T385 76Q491 76 550 148ZM315 765H231L353 918H417L539 765H455L385 863L315 765Z" />
<glyph unicode="&#xd5;" glyph-name="Otilde" horiz-adv-x="771" d="M285 -8T212 36T98 161T58 352Q58 463 97 544T211 669T385 713Q486 713 560 670T673 545T713 353Q713 243 674 162T560 36T385 -8Q285 -8 212 36ZM491 76T550 148T609 353Q609 486 551 557T385
629Q280 629 222 558T163 353Q163 220 221 148T385 76Q491 76 550 148ZM220 841T246 873T315 906Q335 906 352 898T397 874Q420 861 431 856T454 850Q474 850 486 865T499 903H550Q550 844 524 812T455 779Q435 779 418 787T373 811Q350 824 339 829T316 835Q296
835 284 820T271 782H220Q220 841 246 873Z" />
<glyph unicode="&#xd6;" glyph-name="Odieresis" horiz-adv-x="771" d="M285 -8T212 36T98 161T58 352Q58 463 97 544T211 669T385 713Q486 713 560 670T673 545T713 353Q713 243 674 162T560 36T385 -8Q285 -8 212 36ZM491 76T550 148T609 353Q609 486 551 557T385
629Q280 629 222 558T163 353Q163 220 221 148T385 76Q491 76 550 148ZM245 892H348V793H245V892ZM422 892H525V793H422V892Z" />
<glyph unicode="&#xd7;" glyph-name="multiply" horiz-adv-x="600" d="M534 467L352 285L534 103L482 51L300 233L118 51L66 103L248 285L66 467L118 519L300 337L482 519L534 467Z" />
<glyph unicode="&#xd8;" glyph-name="Oslash" horiz-adv-x="771" d="M655 594T684 521T713 353Q713 243 674 162T560 36T385 -8Q302 -8 239 22L195 -53L127 -12L171 64Q116 112 87 185T58 352Q58 463 97 544T211 669T385 713Q466 713 532 684L575 758L644 717L600
641Q655 594 684 521ZM163 221T221 149L487 607Q444 629 385 629Q280 629 222 558T163 353Q163 221 221 149ZM491 76T550 148T609 353Q609 485 551 557L283 98Q326 76 385 76Q491 76 550 148Z" />
<glyph unicode="&#xd9;" glyph-name="Ugrave" horiz-adv-x="728" d="M223 -8T150 65T77 280V705H179V273Q179 176 225 126T364 76Q455 76 502 126T549 273V705H651V280Q651 139 578 66T364 -8Q223 -8 150 65ZM331 765L193 918H296L397 765H331Z" />
<glyph unicode="&#xda;" glyph-name="Uacute" horiz-adv-x="728" d="M223 -8T150 65T77 280V705H179V273Q179 176 225 126T364 76Q455 76 502 126T549 273V705H651V280Q651 139 578 66T364 -8Q223 -8 150 65ZM397 765H331L432 918H535L397 765Z" />
<glyph unicode="&#xdb;" glyph-name="Ucircumflex" horiz-adv-x="728" d="M223 -8T150 65T77 280V705H179V273Q179 176 225 126T364 76Q455 76 502 126T549 273V705H651V280Q651 139 578 66T364 -8Q223 -8 150 65ZM294 765H210L332 918H396L518 765H434L364 863L294 765Z" />
<glyph unicode="&#xdc;" glyph-name="Udieresis" horiz-adv-x="728" d="M223 -8T150 65T77 280V705H179V273Q179 176 225 126T364 76Q455 76 502 126T549 273V705H651V280Q651 139 578 66T364 -8Q223 -8 150 65ZM224 892H327V793H224V892ZM401 892H504V793H401V892Z" />
<glyph unicode="&#xdd;" glyph-name="Yacute" horiz-adv-x="611" d="M638 705L357 329V0H254V329L-27 705H91L306 414L521 705H638ZM338 765H272L373 918H476L338 765Z" />
<glyph unicode="&#xde;" glyph-name="Thorn" horiz-adv-x="652" d="M489 554T549 503T610 359Q610 267 549 215T380 163H184V0H82V705H184V554H380Q489 554 549 503ZM439 245T475 273T511 359Q511 417 476 444T366 471H184V245H366Q439 245 475 273Z" />
<glyph unicode="&#xdf;" glyph-name="germandbls" horiz-adv-x="634" d="M70 467Q70 583 133 647T311 711Q395 711 442 675T490 575Q490 534 470 505T414 443Q387 417 375 401T362 365Q362 337 385 322T460 288Q505 273 534 258T585 214T606 142Q606 75 555 34T418
-7Q364 -7 314 9T229 55L260 128Q340 71 419 71Q463 72 487 88T511 136Q511 166 486 182T409 216Q363 232 335 246T286 286T266 354Q266 390 284 416T337 477Q367 506 381 525T395 569Q395 600 373 617T308 634Q243 634 207 594T171 481V0H70V467Z" />
<glyph unicode="&#xe0;" glyph-name="agrave" horiz-adv-x="535" d="M372 500T419 451T467 302V0H370V81Q351 38 314 16T226 -7Q178 -7 138 12T76 67T53 145Q53 198 80 228T171 272T346 285H369V314Q369 370 346 395T269 420Q186 420 103 369L73 440Q112 467 167
483T274 500Q372 500 419 451ZM299 68T334 105T369 202V228H351Q273 228 231 221T171 198T153 150Q153 115 178 92T244 68Q299 68 334 105ZM242 552L101 755H209L308 552H242Z" />
<glyph unicode="&#xe1;" glyph-name="aacute" horiz-adv-x="535" d="M372 500T419 451T467 302V0H370V81Q351 38 314 16T226 -7Q178 -7 138 12T76 67T53 145Q53 198 80 228T171 272T346 285H369V314Q369 370 346 395T269 420Q186 420 103 369L73 440Q112 467 167
483T274 500Q372 500 419 451ZM299 68T334 105T369 202V228H351Q273 228 231 221T171 198T153 150Q153 115 178 92T244 68Q299 68 334 105ZM308 552H242L341 755H449L308 552Z" />
<glyph unicode="&#xe2;" glyph-name="acircumflex" horiz-adv-x="535" d="M372 500T419 451T467 302V0H370V81Q351 38 314 16T226 -7Q178 -7 138 12T76 67T53 145Q53 198 80 228T171 272T346 285H369V314Q369 370 346 395T269 420Q186 420 103 369L73 440Q112
467 167 483T274 500Q372 500 419 451ZM299 68T334 105T369 202V228H351Q273 228 231 221T171 198T153 150Q153 115 178 92T244 68Q299 68 334 105ZM207 552H121L242 755H308L429 552H343L275 687L207 552Z" />
<glyph unicode="&#xe3;" glyph-name="atilde" horiz-adv-x="535" d="M372 500T419 451T467 302V0H370V81Q351 38 314 16T226 -7Q178 -7 138 12T76 67T53 145Q53 198 80 228T171 272T346 285H369V314Q369 370 346 395T269 420Q186 420 103 369L73 440Q112 467 167
483T274 500Q372 500 419 451ZM299 68T334 105T369 202V228H351Q273 228 231 221T171 198T153 150Q153 115 178 92T244 68Q299 68 334 105ZM110 654T136 686T205 718Q225 718 242 710T287 686Q310 673 321 668T344 662Q364 662 376 677T389 715H440Q440 656 414
624T345 592Q325 592 307 600T263 623Q244 635 231 641T206 647Q186 647 174 633T161 595H110Q110 654 136 686Z" />
<glyph unicode="&#xe4;" glyph-name="adieresis" horiz-adv-x="535" d="M372 500T419 451T467 302V0H370V81Q351 38 314 16T226 -7Q178 -7 138 12T76 67T53 145Q53 198 80 228T171 272T346 285H369V314Q369 370 346 395T269 420Q186 420 103 369L73 440Q112 467
167 483T274 500Q372 500 419 451ZM299 68T334 105T369 202V228H351Q273 228 231 221T171 198T153 150Q153 115 178 92T244 68Q299 68 334 105ZM135 703H238V604H135V703ZM312 703H415V604H312V703Z" />
<glyph unicode="&#xe5;" glyph-name="aring" horiz-adv-x="535" d="M372 500T419 451T467 302V0H370V81Q351 38 314 16T226 -7Q178 -7 138 12T76 67T53 145Q53 198 80 228T171 272T346 285H369V314Q369 370 346 395T269 420Q186 420 103 369L73 440Q112 467 167
483T274 500Q372 500 419 451ZM299 68T334 105T369 202V228H351Q273 228 231 221T171 198T153 150Q153 115 178 92T244 68Q299 68 334 105ZM232 552T202 581T171 654Q171 696 201 725T275 755Q318 755 348 726T379 654Q379 611 349 582T275 552Q232 552 202 581ZM295
605T308 619T322 654Q322 674 309 688T275 702Q255 702 242 688T228 654Q228 634 241 620T275 605Q295 605 308 619Z" />
<glyph unicode="&#xe6;" glyph-name="ae" horiz-adv-x="848" d="M808 227H469Q479 72 616 72Q697 72 769 127L800 56Q767 27 717 10T616 -7Q544 -7 492 22T412 108Q392 53 347 23T237 -7Q185 -7 143 12T77 66T53 145Q53 198 81 228T172 272T347 285H371V312Q371
369 348 394T272 420Q190 420 103 369L73 440Q111 466 167 483T274 500Q394 500 436 421Q466 459 509 479T604 500Q698 500 753 435T808 258V227ZM545 426T511 389T469 285H720Q718 353 688 389T602 426Q545 426 511 389ZM302 68T336 107T371 205V228H352Q274 228
232 221T171 198T153 150Q153 113 180 91T249 68Q302 68 336 107Z" />
<glyph unicode="&#xe7;" glyph-name="ccedilla" horiz-adv-x="483" d="M435 29T392 13T301 -7L296 -43Q310 -41 317 -41Q351 -41 373 -58T395 -110Q395 -147 363 -170T274 -194Q253 -194 228 -189T184 -175L197 -128Q234 -142 273 -142Q298 -142 312 -134T326
-110Q326 -85 291 -85Q273 -85 249 -93L229 -76L237 -4Q146 10 94 76T42 244Q42 320 72 378T158 468T288 500Q339 500 386 483T464 437L433 365Q367 419 296 419Q226 419 187 374T147 245Q147 163 186 119T296 74Q367 74 433 128L464 55Q435 29 392 13Z" />
<glyph unicode="&#xe8;" glyph-name="egrave" horiz-adv-x="529" d="M488 227H143Q154 72 297 72Q381 72 449 127L480 56Q446 27 396 10T294 -7Q177 -7 110 60T42 245Q42 320 71 378T154 468T276 500Q375 500 431 436T488 259V227ZM220 426T186 390T144 285H401Q398
353 367 389T278 426Q220 426 186 390ZM243 552L102 755H210L309 552H243Z" />
<glyph unicode="&#xe9;" glyph-name="eacute" horiz-adv-x="529" d="M488 227H143Q154 72 297 72Q381 72 449 127L480 56Q446 27 396 10T294 -7Q177 -7 110 60T42 245Q42 320 71 378T154 468T276 500Q375 500 431 436T488 259V227ZM220 426T186 390T144 285H401Q398
353 367 389T278 426Q220 426 186 390ZM309 552H243L342 755H450L309 552Z" />
<glyph unicode="&#xea;" glyph-name="ecircumflex" horiz-adv-x="529" d="M488 227H143Q154 72 297 72Q381 72 449 127L480 56Q446 27 396 10T294 -7Q177 -7 110 60T42 245Q42 320 71 378T154 468T276 500Q375 500 431 436T488 259V227ZM220 426T186 390T144 285H401Q398
353 367 389T278 426Q220 426 186 390ZM208 552H122L243 755H309L430 552H344L276 687L208 552Z" />
<glyph unicode="&#xeb;" glyph-name="edieresis" horiz-adv-x="529" d="M488 227H143Q154 72 297 72Q381 72 449 127L480 56Q446 27 396 10T294 -7Q177 -7 110 60T42 245Q42 320 71 378T154 468T276 500Q375 500 431 436T488 259V227ZM220 426T186 390T144 285H401Q398
353 367 389T278 426Q220 426 186 390ZM136 703H239V604H136V703ZM313 703H416V604H313V703Z" />
<glyph unicode="&#xec;" glyph-name="igrave" horiz-adv-x="242" d="M70 0V488H171V0H70ZM88 552L-53 755H55L154 552H88Z" />
<glyph unicode="&#xed;" glyph-name="iacute" horiz-adv-x="242" d="M70 0V488H171V0H70ZM154 552H88L187 755H295L154 552Z" />
<glyph unicode="&#xee;" glyph-name="icircumflex" horiz-adv-x="242" d="M70 0V488H171V0H70ZM53 552H-33L88 755H154L275 552H189L121 687L53 552Z" />
<glyph unicode="&#xef;" glyph-name="idieresis" horiz-adv-x="242" d="M70 0V488H171V0H70ZM-19 703H84V604H-19V703ZM158 703H261V604H158V703Z" />
<glyph unicode="&#xf0;" glyph-name="eth" horiz-adv-x="569" d="M477 516T502 444T527 290Q527 145 464 69T279 -7Q209 -7 155 21T72 102T42 224Q42 292 71 344T152 426T272 455Q370 455 422 394Q401 481 340 542L175 488L157 547L282 588Q226 625 154 641L178
713Q295 688 379 620L506 662L523 603L428 572Q477 516 502 444ZM347 73T383 113T420 224Q420 297 384 336T282 376Q216 376 180 337T144 224Q144 151 179 112T282 73Q347 73 383 113Z" />
<glyph unicode="&#xf1;" glyph-name="ntilde" horiz-adv-x="576" d="M508 500T508 303V0H407V298Q407 360 383 389T306 418Q245 418 208 380T171 278V0H70V488H169V410Q193 454 236 477T333 500Q508 500 508 303ZM124 654T150 686T219 718Q239 718 256 710T301
686Q324 673 335 668T358 662Q378 662 390 677T403 715H454Q454 656 428 624T359 592Q339 592 321 600T277 623Q258 635 245 641T220 647Q200 647 188 633T175 595H124Q124 654 150 686Z" />
<glyph unicode="&#xf2;" glyph-name="ograve" horiz-adv-x="564" d="M210 -7T156 24T72 112T42 246Q42 323 71 380T155 469T282 500Q354 500 408 469T492 381T522 246Q522 170 493 113T409 24T282 -7Q210 -7 156 24ZM349 73T384 117T420 246Q420 330 384 374T282
419Q216 419 180 375T144 246Q144 161 179 117T282 73Q349 73 384 117ZM249 552L108 755H216L315 552H249Z" />
<glyph unicode="&#xf3;" glyph-name="oacute" horiz-adv-x="564" d="M210 -7T156 24T72 112T42 246Q42 323 71 380T155 469T282 500Q354 500 408 469T492 381T522 246Q522 170 493 113T409 24T282 -7Q210 -7 156 24ZM349 73T384 117T420 246Q420 330 384 374T282
419Q216 419 180 375T144 246Q144 161 179 117T282 73Q349 73 384 117ZM315 552H249L348 755H456L315 552Z" />
<glyph unicode="&#xf4;" glyph-name="ocircumflex" horiz-adv-x="564" d="M210 -7T156 24T72 112T42 246Q42 323 71 380T155 469T282 500Q354 500 408 469T492 381T522 246Q522 170 493 113T409 24T282 -7Q210 -7 156 24ZM349 73T384 117T420 246Q420 330 384
374T282 419Q216 419 180 375T144 246Q144 161 179 117T282 73Q349 73 384 117ZM214 552H128L249 755H315L436 552H350L282 687L214 552Z" />
<glyph unicode="&#xf5;" glyph-name="otilde" horiz-adv-x="564" d="M210 -7T156 24T72 112T42 246Q42 323 71 380T155 469T282 500Q354 500 408 469T492 381T522 246Q522 170 493 113T409 24T282 -7Q210 -7 156 24ZM349 73T384 117T420 246Q420 330 384 374T282
419Q216 419 180 375T144 246Q144 161 179 117T282 73Q349 73 384 117ZM117 654T143 686T212 718Q232 718 249 710T294 686Q317 673 328 668T351 662Q371 662 383 677T396 715H447Q447 656 421 624T352 592Q332 592 314 600T270 623Q251 635 238 641T213 647Q193
647 181 633T168 595H117Q117 654 143 686Z" />
<glyph unicode="&#xf6;" glyph-name="odieresis" horiz-adv-x="564" d="M210 -7T156 24T72 112T42 246Q42 323 71 380T155 469T282 500Q354 500 408 469T492 381T522 246Q522 170 493 113T409 24T282 -7Q210 -7 156 24ZM349 73T384 117T420 246Q420 330 384 374T282
419Q216 419 180 375T144 246Q144 161 179 117T282 73Q349 73 384 117ZM142 703H245V604H142V703ZM319 703H422V604H319V703Z" />
<glyph unicode="&#xf7;" glyph-name="divide" horiz-adv-x="600" d="M244 430V532H344V430H244ZM544 322V248H56V322H544ZM244 36V138H344V36H244Z" />
<glyph unicode="&#xf8;" glyph-name="oslash" horiz-adv-x="564" d="M478 416T500 364T522 246Q522 170 493 113T409 24T282 -7Q227 -7 182 11L146 -51L92 -18L128 43Q86 76 64 128T42 246Q42 323 71 380T155 469T282 500Q340 500 382 481L418 543L473 511L437
449Q478 416 500 364ZM143 168T174 123L340 409Q313 420 282 420Q215 420 179 375T143 246Q143 168 174 123ZM350 73T385 117T421 246Q421 323 390 368L224 83Q248 73 282 73Q350 73 385 117Z" />
<glyph unicode="&#xf9;" glyph-name="ugrave" horiz-adv-x="569" d="M498 488V0H400V79Q377 37 337 15T246 -7Q68 -7 68 189V488H169V190Q169 131 193 103T267 75Q326 75 361 113T397 214V488H498ZM251 552L110 755H218L317 552H251Z" />
<glyph unicode="&#xfa;" glyph-name="uacute" horiz-adv-x="569" d="M498 488V0H400V79Q377 37 337 15T246 -7Q68 -7 68 189V488H169V190Q169 131 193 103T267 75Q326 75 361 113T397 214V488H498ZM317 552H251L350 755H458L317 552Z" />
<glyph unicode="&#xfb;" glyph-name="ucircumflex" horiz-adv-x="569" d="M498 488V0H400V79Q377 37 337 15T246 -7Q68 -7 68 189V488H169V190Q169 131 193 103T267 75Q326 75 361 113T397 214V488H498ZM216 552H130L251 755H317L438 552H352L284 687L216 552Z" />
<glyph unicode="&#xfc;" glyph-name="udieresis" horiz-adv-x="569" d="M498 488V0H400V79Q377 37 337 15T246 -7Q68 -7 68 189V488H169V190Q169 131 193 103T267 75Q326 75 361 113T397 214V488H498ZM144 703H247V604H144V703ZM321 703H424V604H321V703Z" />
<glyph unicode="&#xfd;" glyph-name="yacute" horiz-adv-x="520" d="M416 487H517L226 -180H124L209 12L4 487H110L262 114L416 487ZM293 552H227L326 755H434L293 552Z" />
<glyph unicode="&#xfe;" glyph-name="thorn" horiz-adv-x="591" d="M394 500T443 469T521 379T549 244Q549 167 522 110T445 23T332 -7Q277 -7 235 16T171 84V-180H70V705H171V408Q193 452 235 476T332 500Q394 500 443 469ZM374 73T410 118T446 244Q446 326 410
372T308 419Q242 419 207 374T171 246Q171 163 206 118T308 73Q374 73 410 118Z" />
<glyph unicode="&#xff;" glyph-name="ydieresis" horiz-adv-x="520" d="M416 487H517L226 -180H124L209 12L4 487H110L262 114L416 487ZM120 703H223V604H120V703ZM297 703H400V604H297V703Z" />
<glyph unicode="&#x2013;" glyph-name="endash" horiz-adv-x="500" d="M0 235V298H500V235H0Z" />
<glyph unicode="&#x2014;" glyph-name="emdash" horiz-adv-x="1000" d="M0 235V298H1000V235H0Z" />
<glyph unicode="&#x2018;" glyph-name="quoteleft" horiz-adv-x="238" d="M178 589V470H59V551Q59 597 75 635T128 711L172 677Q130 631 124 589H178Z" />
<glyph unicode="&#x2019;" glyph-name="quoteright" horiz-adv-x="238" d="M178 705V624Q178 577 163 539T110 463L66 498Q108 543 114 586H59V705H178Z" />
<glyph unicode="&#x201a;" glyph-name="quotesinglbase" horiz-adv-x="238" d="M178 119V38Q178 -9 163 -47T110 -123L66 -88Q108 -43 114 0H59V119H178Z" />
<glyph unicode="&#x201c;" glyph-name="quotedblleft" horiz-adv-x="415" d="M178 589V470H59V551Q59 597 75 635T128 711L172 677Q130 631 124 589H178ZM356 589V470H237V551Q237 597 253 635T306 711L350 677Q308 631 302 589H356Z" />
<glyph unicode="&#x201d;" glyph-name="quotedblright" horiz-adv-x="415" d="M178 705V624Q178 577 163 539T110 463L66 498Q108 543 114 586H59V705H178ZM356 705V624Q356 577 341 539T288 463L244 498Q286 543 292 586H237V705H356Z" />
<glyph unicode="&#x201e;" glyph-name="quotedblbase" horiz-adv-x="415" d="M178 119V38Q178 -9 163 -47T110 -123L66 -88Q108 -43 114 0H59V119H178ZM356 119V38Q356 -9 341 -47T288 -123L244 -88Q286 -43 292 0H237V119H356Z" />
<glyph unicode="&#x2022;" glyph-name="bullet" horiz-adv-x="524" d="M214 88T172 111T106 175T81 265Q81 311 104 352T169 418T262 443Q310 443 351 420T418 356T443 265Q443 217 419 177T353 112T262 88Q214 88 172 111Z" />
<glyph unicode="&#x2039;" glyph-name="guilsinglleft" horiz-adv-x="272" d="M159 80L61 240V291L158 451L228 421L152 265L228 109L159 80Z" />
<glyph unicode="&#x203a;" glyph-name="guilsinglright" horiz-adv-x="269" d="M113 80L44 109L120 265L44 421L114 451L211 291V240L113 80Z" />
</font>
</defs>
</svg>
